Search This Blog

Toy Story 4 2019 x264 720p Esub BluRay Dual Audio English Hindi GOPISAHI

Toy Story 4 (2019)


When a new toy called "Forky" joins Woody and the gang, a road trip alongside old and new friends reveals how big the world can be for a toy.

Director:

Josh Cooley

Writers:

John Lasseter (original story by), Andrew Stanton (original story by) | 8 more credits »
8.0/10
Production
companies
Distributed byWalt Disney Studios
Motion Pictures
Release date
Running time
100 minutes[4]
CountryUnited States
LanguageEnglish
Budget$200 million[5]
Box office$1.073 billion[




Toy Story 4 2019 x264 720p Esub BluRay Dual Audio English Hindi GOPISAHI

Format                         : Matroska
Format version                 : Version 4
File size                      : 796 MiB
Duration                       : 1 h 40 min
Overall bit rate               : 1 112 kb/s
Movie name                     : Toy Story 4 2019 GOPISAHI

Video
Format                         : AVC
Format/Info                    : Advanced Video Codec
Format profile                 : [email protected]
Format settings                : CABAC / 12 Ref Frames
Format settings, CABAC         : Yes
Format settings, Reference fra : 12 frames
Codec ID                       : V_MPEG4/ISO/AVC
Duration                       : 1 h 40 min
Bit rate                       : 899 kb/s
Width                          : 1 280 pixels
Height                         : 534 pixels
Display aspect ratio           : 2.40:1
Frame rate mode                : Constant
Frame rate                     : 23.976 (24000/1001) FPS
Color space                    : YUV
Chroma subsampling             : 4:2:0
Bit depth                      : 8 bits
Scan type                      : Progressive
Bits/(Pixel*Frame)             : 0.055
Stream size                    : 643 MiB (81%)
Title                          : GOPISAHI
Writing library                : x264 core 157 r2935 545de2f

Audio #1
Format                         : AAC LC
Duration                       : 1 h 40 min
Bit rate                       : 96.0 kb/s
Channel(s)                     : 2 channels
Channel layout                 : L R
Sampling rate                  : 48.0 kHz
Frame rate                     : 46.875 FPS (1024 SPF)
Compression mode               : Lossy
Delay relative to video        : -1 ms
Stream size                    : 69.0 MiB (9%)
Title                          : GOPISAHI
Language                       : Hindi
Default                        : Yes
Forced                         : No

Audio #2
ID                             : 3
Format                         : AAC LC
Format/Info                    : Advanced Audio Codec Low Complexity
Codec ID                       : A_AAC-2
Duration                       : 1 h 40 min
Bit rate                       : 96.0 kb/s
Channel(s)                     : 2 channels
Channel layout                 : L R
Sampling rate                  : 48.0 kHz
Frame rate                     : 46.875 FPS (1024 SPF)
Compression mode               : Lossy
Delay relative to video        : -1 ms
Stream size                    : 69.1 MiB (9%)
Title                          : GOPISAHI
Language                       : English

Text #1
Language                       : English

Text #2
Format                         : PGS
Language                       : English

Menu
00:00:00.000                   : en:Prologue
00:05:39.798                   : en:Playtime
00:11:21.097                   : en:Classroom
00:15:06.239                   : en:Forky Introduction
00:19:01.140                   : en:RV Trip
00:20:52.042                   : en:Forky Jump
00:22:43.821                   : en:Woody On The Road
00:26:11.111                   : en:Bo In The Window
00:27:47.082                   : en:Meet Gabby Gabby
00:32:11.846                   : en:Bonnie Wakes
00:36:17.425                   : en:Bo Meet
00:40:34.640                   : en:Forky Bait
00:42:56.699                   : en:Ducky And Bunny
00:44:26.872                   : en:Ferris Wheel
00:46:39.380                   : en:Store Roof
00:48:06.175                   : en:Flat Tire
00:49:18.664                   : en:Lost Sheep
00:52:25.809                   : en:The Key
00:53:58.568                   : en:Welcome Mat
00:54:34.479                   : en:Recruit Duke
00:59:06.960                   : en:Coming Together
01:01:30.645                   : en:Break In
01:04:40.752                   : en:Bo Leaves
01:07:25.249                   : en:Gabby Standoff
01:09:31.042                   : en:Leaving Town
01:10:54.834                   : en:Second Thoughts
01:12:05.154                   : en:Rejection
01:15:03.040                   : en:Saving Gabby
01:17:29.770                   : en:GPS
01:18:04.846                   : en:Kid Search
01:19:21.840                   : en:Plan B
01:19:48.116                   : en:Lost Girl
01:22:24.940                   : en:Goodbye
01:29:00.293                   : en:End Credits











No comments:

Post a Comment