Search This Blog

The Surface 2014 x264 720p Esub HD Dual Audio English Hindi GOPISAHI

The Surface (2014)

Not Rated | | Drama, Thriller | 16 May 2016 (USA)

Two strangers, both at the end of their rope, suddenly meet in the middle of the unpredictable waters of Lake Michigan.

Director:

Gil Cates Jr.

Writer:

Jeff Gendelman

4.7/10
797



 The Surface 2014 x264 720p Esub HD Dual Audio English Hindi GOPISAHI

Format                         : Matroska
Format version                 : Version 4
File size                      : 717 MiB
Duration                       : 1 h 26 min
Overall bit rate               : 1 163 kb/s
Movie name                     : The Surface 2014 GOPISAHI

Video
Format                         : AVC
Format/Info                    : Advanced Video Codec
Format profile                 : [email protected]
Format settings                : CABAC / 4 Ref Frames
Format settings, CABAC         : Yes
Format settings, Reference fra : 4 frames
Codec ID                       : V_MPEG4/ISO/AVC
Duration                       : 1 h 26 min
Bit rate                       : 1 000 kb/s
Width                          : 1 280 pixels
Height                         : 720 pixels
Display aspect ratio           : 16:9
Frame rate mode                : Constant
Frame rate                     : 23.976 (24000/1001) FPS
Color space                    : YUV
Chroma subsampling             : 4:2:0
Bit depth                      : 8 bits
Scan type                      : Progressive
Bits/(Pixel*Frame)             : 0.045
Stream size                    : 616 MiB (86%)
Title                          : GOPISAHI
Writing library                : x264 core 157 r2935 545de2f

Audio #1
Format                         : AAC LC
Duration                       : 1 h 26 min
Bit rate                       : 96.0 kb/s
Channel(s)                     : 2 channels
Channel layout                 : L R
Sampling rate                  : 48.0 kHz
Frame rate                     : 46.875 FPS (1024 SPF)
Compression mode               : Lossy
Stream size                    : 59.3 MiB (8%)
Title                          : GOPISAHI
Language                       : Hindi

Audio #2
Format                         : AAC LC
Duration                       : 1 h 26 min
Bit rate                       : 64.7 kb/s
Channel(s)                     : 2 channels
Channel layout                 : L R
Sampling rate                  : 48.0 kHz
Frame rate                     : 46.875 FPS (1024 SPF)
Compression mode               : Lossy
Stream size                    : 39.9 MiB (6%)
Title                          : GOPISAHI
Language                       : English

Text
anguage                       : English


















ONLINE 720P HINDI




70 MB MOBILE VERSION



No comments:

Post a Comment