Search This Blog

Sir AKA Cenerentola in Mumbai 2018 x264 720p HD Hindi GOPISAHI


A prosperous young Indian man falls in love with his servant, a widow with the dream of becoming a tailor.

Director:

Rohena Gera

Writer:

Rohena Gera

7.2/10
634

Sir AKA Cenerentola in Mumbai 2018 x264 720p HD Hindi GOPISAHI

Format                         : Matroska
Format version                 : Version 4
File size                      : 710 MiB
Duration                       : 1 h 39 min
Overall bit rate               : 997 kb/s
Movie name                     : Sir AKA Cenerentola in Mumbai 2018 GOPISAHI

Video
Format                         : AVC
Format/Info                    : Advanced Video Codec
Format profile                 : [email protected]
Format settings                : CABAC / 9 Ref Frames
Format settings, CABAC         : Yes
Format settings, Reference fra : 9 frames
Codec ID                       : V_MPEG4/ISO/AVC
Duration                       : 1 h 39 min
Bit rate                       : 899 kb/s
Width                          : 1 280 pixels
Height                         : 688 pixels
Display aspect ratio           : 1.85:1
Frame rate mode                : Constant
Frame rate                     : 24.000 FPS
Color space                    : YUV
Chroma subsampling             : 4:2:0
Bit depth                      : 8 bits
Scan type                      : Progressive
Bits/(Pixel*Frame)             : 0.043
Stream size                    : 640 MiB (90%)
Title                          : GOPISAHI
Writing library                : x264 core 157 r2935 545de2f

Audio
Format                         : AAC LC
Duration                       : 1 h 39 min
Bit rate                       : 96.0 kb/s
Channel(s)                     : 2 channels
Channel layout                 : L R
Sampling rate                  : 48.0 kHz
Frame rate                     : 46.875 FPS (1024 SPF)
Compression mode               : Lossy
Delay relative to video        : -21 ms
Stream size                    : 68.8 MiB (10%)
Title                          : GOPISAHI
Language                       : Hindi
















80 MB MOBILE VERSION



No comments:

Post a Comment