Search This Blog

Saw 2008 x264 720p Esub BluRay Dual Audio English Hindi GOPISAHI

Saw V (2008)

Following Jigsaw's grisly demise, Mark Hoffman is commended as a hero, but Agent Strahm is suspicious, and delves into Hoffman's past. Meanwhile, another group of people are put through a series of gruesome tests.

Director:

David Hackl

Writers:

Patrick Melton (screenplay), Marcus Dunstan (screenplay)

5.8/10
108,838

Production
company
Distributed byLionsgate
Release date
  • October 24, 2008 (United States)
Running time
92 minutes[1]
Country
  • Canada
  • United States
LanguageEnglish
Budget$10.8 million
Box office$113.8 million[2]


Saw 2008 x264 720p Esub BluRay Dual Audio English Hindi GOPISAHI

Format                         : Matroska
Format version                 : Version 4
File size                      : 665 MiB
Duration                       : 1 h 35 min
Overall bit rate               : 978 kb/s
Movie name                     : Saw 2008 GOPISAHI

Video
Format                         : AVC
Format/Info                    : Advanced Video Codec
Format profile                 : [email protected]
Format settings                : CABAC / 5 Ref Frames
Format settings, CABAC         : Yes
Format settings, Reference fra : 5 frames
Codec ID                       : V_MPEG4/ISO/AVC
Duration                       : 1 h 35 min
Bit rate                       : 849 kb/s
Width                          : 1 280 pixels
Height                         : 720 pixels
Display aspect ratio           : 16:9
Frame rate mode                : Constant
Frame rate                     : 23.976 (24000/1001) FPS
Color space                    : YUV
Chroma subsampling             : 4:2:0
Bit depth                      : 8 bits
Scan type                      : Progressive
Bits/(Pixel*Frame)             : 0.038
Stream size                    : 576 MiB (87%)
Title                          : GOPISAHI
Writing library                : x264 core 116 r2074 2641b9e

Audio #1
Format                         : AAC LC
Duration                       : 1 h 35 min
Bit rate                       : 96.0 kb/s
Channel(s)                     : 2 channels
Channel layout                 : L R
Sampling rate                  : 48.0 kHz
Frame rate                     : 46.875 FPS (1024 SPF)
Compression mode               : Lossy
Stream size                    : 65.6 MiB (10%)
Title                          : GOPISAHI
Language                       : Hindi

Audio #2
Format                         : AAC LC SBR
Format settings                : Explicit
Codec ID                       : A_AAC-2
Duration                       : 1 h 35 min
Bit rate                       : 32.0 kb/s
Channel(s)                     : 2 channels
Channel layout                 : L R
Sampling rate                  : 48.0 kHz
Frame rate                     : 23.438 FPS (2048 SPF)
Compression mode               : Lossy
Stream size                    : 21.8 MiB (3%)
Title                          : GOPISAHI
Language                       : English

Text
Language                       : English






No comments:

Post a Comment