Search This Blog

Saak 2019 x264 720p HD Esub Punjabi GOPISAHI

Saak (2019)


While at home on leave, a Punjabi soldier falls in love with a woman whose father forbids her to marry a member of the military.

Director:

Kamaljit Singh

6.5/10
13



Saak 2019 x264 720p HD Esub Punjabi GOPISAHI

Format                         : Matroska
Format version                 : Version 4
File size                      : 861 MiB
Duration                       : 2 h 0 min
Overall bit rate               : 997 kb/s
Movie name                     : SAAK 2019 GOPISAHI

Video
Format                         : AVC
Format/Info                    : Advanced Video Codec
Format profile                 : [email protected]
Format settings                : CABAC / 11 Ref Frames
Format settings, CABAC         : Yes
Format settings, Reference fra : 11 frames
Codec ID                       : V_MPEG4/ISO/AVC
Duration                       : 2 h 0 min
Bit rate                       : 899 kb/s
Width                          : 1 280 pixels
Height                         : 582 pixels
Display aspect ratio           : 2.2:1
Frame rate mode                : Constant
Frame rate                     : 24.000 FPS
Color space                    : YUV
Chroma subsampling             : 4:2:0
Bit depth                      : 8 bits
Scan type                      : Progressive
Bits/(Pixel*Frame)             : 0.050
Stream size                    : 776 MiB (90%)
Title                          : GOPISAHI
Writing library                : x264 core 157 r2935 545de2f

Audio
Format                         : AAC LC
Duration                       : 2 h 0 min
Bit rate                       : 96.0 kb/s
Channel(s)                     : 2 channels
Channel layout                 : L R
Sampling rate                  : 48.0 kHz
Frame rate                     : 46.875 FPS (1024 SPF)
Compression mode               : Lossy
Delay relative to video        : -21 ms
Stream size                    : 83.1 MiB (10%)
Title                          : GOPISAHI
Language                       : Panjabi

Text                 ENGLISH




1 comment:

  1. Hi Gopishai
    please uploadthese movies

    BAND VAJE
    MAR GAY OYE LOKO
    MANJE BISTRE 2

    regards
    WASEEM ASLAM

    ReplyDelete