Search This Blog

Raduaa 2018 x264 720p HD Esub Punjabi GOPISAHI

Raduaa (2018)

When an experimental process goes horribly wrong; the lead characters unknowingly find themselves transported back in bygone era, 1955 to be precise. As they tries to fit in such an old era... See full summary »

Director:

Nav Bajwa

Writer:

Baldev Ghuman

5.5/10
32


Raduaa 2018 x264 720p HD Esub Punjabi GOPISAHI

Format                         : Matroska
Format version                 : Version 4
File size                      : 920 MiB
Duration                       : 2 h 8 min
Overall bit rate               : 997 kb/s
Movie name                     : RADUAA 2018 GOPISAHI

Video
Format                         : AVC
Format/Info                    : Advanced Video Codec
Format profile                 : [email protected]
Format settings                : CABAC / 12 Ref Frames
Format settings, CABAC         : Yes
Format settings, Reference fra : 12 frames
Codec ID                       : V_MPEG4/ISO/AVC
Duration                       : 2 h 8 min
Bit rate                       : 899 kb/s
Width                          : 1 280 pixels
Height                         : 544 pixels
Display aspect ratio           : 2.35:1
Frame rate mode                : Constant
Frame rate                     : 24.000 FPS
Color space                    : YUV
Chroma subsampling             : 4:2:0
Bit depth                      : 8 bits
Scan type                      : Progressive
Bits/(Pixel*Frame)             : 0.054
Stream size                    : 829 MiB (90%)
Title                          : GOPISAHI
Writing library                : x264 core 157 r2935 545de2f

Audio
Format                         : AAC LC
Duration                       : 2 h 8 min
Bit rate                       : 96.0 kb/s
Channel(s)                     : 2 channels
Channel layout                 : L R
Sampling rate                  : 48.0 kHz
Frame rate                     : 46.875 FPS (1024 SPF)
Compression mode               : Lossy
Delay relative to video        : -21 ms
Stream size                    : 88.6 MiB (10%)
Title                          : GOPISAHI
Language                       : Panjabi

Text
Language                       : English







No comments:

Post a Comment