Search This Blog

Prassthanam 2019 x264 720p HD Esub Hindi GOPISAHI

Prassthanam (2019)

Not Rated | | Action, Drama | 20 September 2019 (USA)

A rural politician marries a widow with kids and gains a respectable position and trusts his stepson more than his own in political matters; thus upsetting his son beyond limits.

Director:

Deva Katta

Writer:

Jayesh Parmar (dialogue)

5.8/10
279
Prassthanam 2019 x264 720p HD Esub Hindi GOPISAHI

Format                         : Matroska
Format version                 : Version 4
File size                      : 987 MiB
Duration                       : 2 h 18 min
Overall bit rate               : 996 kb/s
Movie name                     : PRASSTHANAM 2019 GOPISAHI

Video
Format                         : AVC
Format/Info                    : Advanced Video Codec
Format profile                 : [email protected]
Format settings                : CABAC / 12 Ref Frames
Format settings, CABAC         : Yes
Format settings, Reference fra : 12 frames
Codec ID                       : V_MPEG4/ISO/AVC
Duration                       : 2 h 18 min
Bit rate                       : 899 kb/s
Width                          : 1 280 pixels
Height                         : 534 pixels
Display aspect ratio           : 2.40:1
Frame rate mode                : Constant
Frame rate                     : 24.000 FPS
Color space                    : YUV
Chroma subsampling             : 4:2:0
Bit depth                      : 8 bits
Scan type                      : Progressive
Bits/(Pixel*Frame)             : 0.055
Stream size                    : 890 MiB (90%)
Title                          : GOPISAHI
Writing library                : x264 core 157 r2935 545de2f

Audio
Format                         : AAC LC
Duration                       : 2 h 18 min
Bit rate                       : 96.0 kb/s
Channel(s)                     : 2 channels
Channel layout                 : L R
Sampling rate                  : 48.0 kHz
Frame rate                     : 46.875 FPS (1024 SPF)
Compression mode               : Lossy
Delay relative to video        : -21 ms
Stream size                    : 94.6 MiB (10%)
Title                          : GOPISAHI
Language                       : Hindi

Text
Language                       : English




GDRIVE 3



No comments:

Post a Comment