Search This Blog

House Arrest 2019 x264 720p HD Hindi GOPISAHI

House Arrest (2019)

Karan may want to shut the door on the world but the world won't stop ringing his doorbell. Who will he let in?

Writer:

Samit Basu

6.0/10
93




House Arrest 2019 x264 720p HD Hindi GOPISAHI

Format                         : Matroska
Format version                 : Version 4
File size                      : 747 MiB
Duration                       : 1 h 44 min
Overall bit rate               : 998 kb/s
Movie name                     : House Arrest 2019 GOPISAHI

Video
ID                             : 1
Format                         : AVC
Format/Info                    : Advanced Video Codec
Format profile                 : [email protected]
Format settings                : CABAC / 9 Ref Frames
Format settings, CABAC         : Yes
Format settings, Reference fra : 9 frames
Codec ID                       : V_MPEG4/ISO/AVC
Duration                       : 1 h 44 min
Bit rate                       : 899 kb/s
Width                          : 1 280 pixels
Height                         : 676 pixels
Display aspect ratio           : 1.893
Frame rate mode                : Constant
Frame rate                     : 30.303 FPS
Color space                    : YUV
Chroma subsampling             : 4:2:0
Bit depth                      : 8 bits
Scan type                      : Progressive
Bits/(Pixel*Frame)             : 0.034
Stream size                    : 673 MiB (90%)
Title                          : GOPISAHI
Writing library                : x264 core 157 r2935 545de2f

Audio
Format                         : AAC LC
Duration                       : 1 h 44 min
Bit rate                       : 96.0 kb/s
Channel(s)                     : 2 channels
Channel layout                 : L R
Sampling rate                  : 48.0 kHz
Frame rate                     : 46.875 FPS (1024 SPF)
Compression mode               : Lossy
Delay relative to video        : -66 ms
Stream size                    : 72.0 MiB (10%)
Title                          : GOPISAHI
Language                       : Hindi















MEDIAFIRE

DBUPLOAD

UPLOADEVER

UPLOADBUZZ



80 MB MOBILE VERSION HINDI





No comments:

Post a Comment