Search This Blog

Drive 2019 x264 720p Esub NF Dual Audio English Hindi GOPISAHI

Drive (2019)

Not Rated | | Action, Thriller | 1 November 2019 (India) 
 
A stunt driver gets attracted to his neighbour and is drawn into a dangerous underworld.

Director:

Tarun Mansukhani

Writers:

Mast Ali (adaptation), Hossein Amini (original screenplay) | 2 more credits »
2.4/10


Drive 2019 x264 720p Esub NF Dual Audio English Hindi GOPISAHI

Format                         : Matroska
Format version                 : Version 4
File size                      : 931 MiB
Duration                       : 1 h 59 min
Overall bit rate               : 1 092 kb/s
Movie name                     : DRIVE 2019 GOPISAHI

Video
Format                         : AVC
Format/Info                    : Advanced Video Codec
Format profile                 : [email protected]
Format settings                : CABAC / 12 Ref Frames
Format settings, CABAC         : Yes
Format settings, Reference fra : 12 frames
Codec ID                       : V_MPEG4/ISO/AVC
Duration                       : 1 h 59 min
Bit rate                       : 899 kb/s
Width                          : 1 280 pixels
Height                         : 544 pixels
Display aspect ratio           : 2.35:1
Frame rate mode                : Constant
Frame rate                     : 24.000 FPS
Color space                    : YUV
Chroma subsampling             : 4:2:0
Bit depth                      : 8 bits
Scan type                      : Progressive
Bits/(Pixel*Frame)             : 0.054
Stream size                    : 766 MiB (82%)
Title                          : GOPISAHI
Writing library                : x264 core 157 r2935 545de2f

Audio #1
Format                         : AAC LC
Duration                       : 1 h 59 min
Bit rate                       : 94.0 kb/s
Channel(s)                     : 2 channels
Channel layout                 : L R
Sampling rate                  : 48.0 kHz
Frame rate                     : 46.875 FPS (1024 SPF)
Compression mode               : Lossy
Delay relative to video        : -21 ms
Stream size                    : 80.1 MiB (9%)
Title                          : GOPISAHI
Language                       : Hindi
Default                        : Yes
Forced                         : No

Audio #2
Format                         : AAC LC
Format/Info                    : Advanced Audio Codec Low Complexity
Codec ID                       : A_AAC-2
Duration                       : 1 h 59 min
Bit rate                       : 94.0 kb/s
Channel(s)                     : 2 channels
Channel layout                 : L R
Sampling rate                  : 48.0 kHz
Frame rate                     : 46.875 FPS (1024 SPF)
Compression mode               : Lossy
Delay relative to video        : -21 ms
Stream size                    : 80.1 MiB (9%)
Title                          : GOPISAHI
Language                       : English

Text #1
Language                       : English






No comments:

Post a Comment