Search This Blog

Dosti Ke Side Effects 2019 x264 720p HD Hindi GOPISAHI

Dosti ke side effects (2019)

UA | | Drama | 8 February 2019 (India) 
 
The story of close childhood friends who separate because of circumstances and happen to cross paths as adults when they happen to study in the same college.

Director:

Hadi ali Abar

Writers:

Aleena Chouhan (dialogue), Reena Daniel (story) | 3 more credits »
5.4/10

Dosti Ke Side Effects 2019 x264 720p HD Hindi GOPISAHI

Format                         : Matroska
Format version                 : Version 4
File size                      : 878 MiB
Duration                       : 2 h 3 min
Overall bit rate               : 996 kb/s
Movie name                     : Dosti Ke Side Effect 2019 GOPISAHI

Video
ID                             : 1
Format                         : AVC
Format/Info                    : Advanced Video Codec
Format profile                 : [email protected]
Format settings                : CABAC / 12 Ref Frames
Format settings, CABAC         : Yes
Format settings, Reference fra : 12 frames
Codec ID                       : V_MPEG4/ISO/AVC
Duration                       : 2 h 3 min
Bit rate                       : 899 kb/s
Width                          : 1 280 pixels
Height                         : 544 pixels
Display aspect ratio           : 2.35:1
Frame rate mode                : Constant
Frame rate                     : 25.000 FPS
Color space                    : YUV
Chroma subsampling             : 4:2:0
Bit depth                      : 8 bits
Scan type                      : Progressive
Bits/(Pixel*Frame)             : 0.052
Stream size                    : 792 MiB (90%)
Title                          : GOPISAHI
Writing library                : x264 core 157 r2935 545de2f

Audio
Format                         : AAC LC
Duration                       : 2 h 3 min
Bit rate                       : 96.0 kb/s
Channel(s)                     : 2 channels
Channel layout                 : L R
Sampling rate                  : 48.0 kHz
Frame rate                     : 46.875 FPS (1024 SPF)
Compression mode               : Lossy
Delay relative to video        : -101 ms
Stream size                    : 83.7 MiB (10%)
Title                          : GOPISAHI
Language                       : Hindi





No comments:

Post a Comment