Search This Blog

Dazed And Confused 1993 X264 720P Esub Bluray Dual Audio English Hindi GOPISAHI

Dazed and Confused (1993)


The adventures of high school and junior high students on the last day of school in May 1976.

Director:

Richard Linklater

7.6/10
150,788

Production
company
Alphaville
Distributed byGramercy Pictures
Release date
  • September 24, 1993
Running time
102 minutes[1]
CountryUnited States
LanguageEnglish
Budget$6.9 million[2][3]
Box office$8.0 million

Dazed And Confused 1993 x264 720p Esub BluRay Dual Audio English Hindi GOPISAHI

Format                         : Matroska
Format version                 : Version 4
File size                      : 826 MiB
Duration                       : 1 h 42 min
Overall bit rate               : 1 128 kb/s
Movie name                     : Dazed And Confused 1993 GOPISAHI

Video
Format                         : AVC
Format/Info                    : Advanced Video Codec
Format profile                 : [email protected]
Format settings                : CABAC / 9 Ref Frames
Format settings, CABAC         : Yes
Format settings, Reference fra : 9 frames
Codec ID                       : V_MPEG4/ISO/AVC
Duration                       : 1 h 42 min
Bit rate                       : 899 kb/s
Width                          : 1 280 pixels
Height                         : 694 pixels
Display aspect ratio           : 1.85:1
Frame rate mode                : Constant
Frame rate                     : 23.976 (24000/1001) FPS
Color space                    : YUV
Chroma subsampling             : 4:2:0
Bit depth                      : 8 bits
Scan type                      : Progressive
Bits/(Pixel*Frame)             : 0.042
Stream size                    : 658 MiB (80%)
Title                          : GOPISAHI
Writing library                : x264 core 157 r2935 545de2f

Audio #1
Format                         : AAC LC
Duration                       : 1 h 42 min
Bit rate                       : 96.0 kb/s
Channel(s)                     : 2 channels
Channel layout                 : L R
Sampling rate                  : 48.0 kHz
Frame rate                     : 46.875 FPS (1024 SPF)
Compression mode               : Lossy
Delay relative to video        : 79 ms
Stream size                    : 70.4 MiB (9%)
Title                          : GOPISAHI
Language                       : Hindi

Audio #2
Format                         : AAC LC
Duration                       : 1 h 42 min
Bit rate                       : 96.0 kb/s
Channel(s)                     : 2 channels
Channel layout                 : L R
Sampling rate                  : 48.0 kHz
Frame rate                     : 46.875 FPS (1024 SPF)
Compression mode               : Lossy
Delay relative to video        : -21 ms
Stream size                    : 70.3 MiB (9%)
Title                          : GOPISAHI
Language                       : English

Text
Language                       : English








No comments:

Post a Comment