Search This Blog

Crawl 2019 x264 720p BluRay Dual Audio English Hindi Telugu Tamil GOPISAHI

Crawl (2019)


A young woman, while attempting to save her father during a category 5 hurricane, finds herself trapped in a flooding house and must fight for her life against alligators.

Director:

Alexandre Aja

6.2/10
36,660

Distributed byParamount Pictures
Release date
  • July 12, 2019
Running time
87 minutes
CountryUnited States
LanguageEnglish
Budget$13.5 million[1]
Box office$90.5 million[1]

Crawl 2019 x264 720p BluRay Dual Audio English Hindi Telugu Tamil GOPISAHI

Format                         : Matroska
Format version                 : Version 4
File size                      : 742 MiB
Duration                       : 1 h 28 min
Overall bit rate               : 1 178 kb/s
Movie name                     : Crawl 2019 GOPISAHI
Encoded date                   : UTC 2019-11-20 06:36:16
Writing application            : mkvmerge v35.0.0 ('All The Love In The World') 64-bit
Writing library                : libebml v1.3.9 + libmatroska v1.5.2

Video
ID                             : 1
Format                         : AVC
Format/Info                    : Advanced Video Codec
Format profile                 : [email protected]
Format settings                : CABAC / 12 Ref Frames
Format settings, CABAC         : Yes
Format settings, Reference fra : 12 frames
Codec ID                       : V_MPEG4/ISO/AVC
Duration                       : 1 h 28 min
Bit rate                       : 899 kb/s
Width                          : 1 280 pixels
Height                         : 534 pixels
Display aspect ratio           : 2.40:1
Frame rate mode                : Constant
Frame rate                     : 23.976 (24000/1001) FPS
Color space                    : YUV
Chro type                      : Progressive
Bits/(Pixel*Frame)             : 0.055
Stream size                    : 566 MiB (76%)
Title                          : GOPISAHI
Writing library                : x264 core 157 r2935 545de2f


Audio #1
Format                         : AAC LC
Duration                       : 1 h 27 min
Bit rate                       : 96.0 kb/s
Channel(s)                     : 2 channels
Channel layout                 : L R
Sampling rate                  : 48.0 kHz
Frame rate                     : 46.875 FPS (1024 SPF)
Compression mode               : Lossy
Delay relative to video        : -64 ms
Stream size                    : 60.1 MiB (8%)
Title                          : GOPISAHI
Language                       : Hindi

Audio #2
Format                         : AAC LC
Duration                       : 1 h 27 min
Bit rate                       : 96.0 kb/s
Channel(s)                     : 2 channels
Channel layout                 : L R
Sampling rate                  : 48.0 kHz
Frame rate                     : 46.875 FPS (1024 SPF)
Compression mode               : Lossy
Delay relative to video        : -64 ms
Stream size                    : 60.0 MiB (8%)
Title                          : GOPISAHI
Language                       : English

Audio #3
Format                         : Opus
Codec ID                       : A_OPUS
Duration                       : 1 h 27 min
Bit rate                       : 42.9 kb/s
Channel(s)                     : 2 channels
Channel layout                 : L R
Sampling rate                  : 48.0 kHz
Frame rate                     : 50.000 FPS (960 SPF)
Compression mode               : Lossy
Delay relative to video        : -50 ms
Stream size                    : 26.8 MiB (4%)
Title                          : GOPISAHI
Language                       : Tamil

Audio #4
Format                         : Opus
Codec ID                       : A_OPUS
Duration                       : 1 h 27 min
Bit rate                       : 43.0 kb/s
Channel(s)                     : 2 channels
Channel layout                 : L R
Sampling rate                  : 48.0 kHz
Frame rate                     : 50.000 FPS (960 SPF)
Compression mode               : Lossy
Delay relative to video        : -50 ms
Stream size                    : 26.8 MiB (4%)
Title                          : GOPISAHI
Language                       : Telugu





No comments:

Post a Comment