Search This Blog

Chhappad Phaad Ke 2019 x264 720p HD Esub Hindi GOPISAHI

Chhappad Phaad Ke (2019)

  
Chappad Phaad Ke is a satirical look at the consumerism and hypocrisy that engulfs us in our daily lives, set in the background of a typical middle class Maharashtrian family. The Gupchup ... See full summary »

Director:

Sameer Joshi

Writers:

Sameer Joshi (screenplay by), Yashodhan Kelkar (screenplay by) | 1 more credit »

6.0/10


Chhappad Phaad Ke 2019 x264 720p HD Esub Hindi GOPISAHI

Format                         : Matroska
Format version                 : Version 4
File size                      : 865 MiB
Duration                       : 2 h 0 min
Overall bit rate               : 1 007 kb/s
Movie name                     : Chhappad Phaad Ke 2019 GOPISAHI

Video
Format                         : AVC
Format/Info                    : Advanced Video Codec
Format profile                 : [email protected]
Format settings                : CABAC / 12 Ref Frames
Format settings, CABAC         : Yes
Format settings, Reference fra : 12 frames
Codec ID                       : V_MPEG4/ISO/AVC
Duration                       : 2 h 0 min
Bit rate                       : 899 kb/s
Width                          : 1 280 pixels
Height                         : 536 pixels
Display aspect ratio           : 2.40:1
Frame rate mode                : Constant
Frame rate                     : 23.976 (23976/1000) FPS
Color space                    : YUV
Chroma subsampling             : 4:2:0
Bit depth                      : 8 bits
Scan type                      : Progressive
Bits/(Pixel*Frame)             : 0.055
Stream size                    : 772 MiB (89%)
Title                          : GOPISAHI
Writing library                : x264 core 157 r2935 545de2f

Audio
Format                         : AAC LC
Codec ID                       : A_AAC-2
Duration                       : 2 h 0 min
Bit rate                       : 106 kb/s
Channel(s)                     : 6 channels
Channel layout                 : C L R Ls Rs LFE
Sampling rate                  : 48.0 kHz
Frame rate                     : 46.875 FPS (1024 SPF)
Compression mode               : Lossy
Delay relative to video        : -21 ms
Stream size                    : 91.5 MiB (11%)
Title                          : GOPISAHI
Language                       : Hind





1 comment:

  1. Mr. Gopi
    You have done a very marvelous job , your contents are extraordinary.
    Remember my word one day everyone will become your fan

    ReplyDelete