Search This Blog

Chal Mera Putt 2019 x264 720p HD Esub Punjabi GOPISAHI

Chal Mera Putt (2019)

Not Rated | | Comedy, Drama | 26 July 2019 (USA)

This is the story of six Punjabis from India, Pakistan and their struggle to get settled.

Director:

Janjot Singh

Writer:

Rakesh Dhawan

8.1/10


Production
company
Distributed by
  • Omjee Star Studios
  • Rhythm Boyz
Release date
  • 26 July 2019 (India)
Running time
124 minutes[1]
CountryIndia
LanguagePunjabi
Box officeest. 30 crore[2]


Chal Mera Putt 2019 x264 720p HD Esub Punjabi GOPISAHI

Format                         : Matroska
Format version                 : Version 4
File size                      : 878 MiB
Duration                       : 2 h 3 min
Overall bit rate               : 994 kb/s
Movie name                     : CHAL MERA PUTT 2019 GOPISAHI

Video
Format                         : AVC
Format/Info                    : Advanced Video Codec
Format profile                 : [email protected]
Format settings                : CABAC / 12 Ref Frames
Format settings, CABAC         : Yes
Format settings, Reference fra : 12 frames
Codec ID                       : V_MPEG4/ISO/AVC
Duration                       : 2 h 3 min
Bit rate                       : 899 kb/s
Width                          : 1 280 pixels
Height                         : 544 pixels
Display aspect ratio           : 2.35:1
Frame rate mode                : Constant
Frame rate                     : 24.000 FPS
Color space                    : YUV
Chroma subsampling             : 4:2:0
Bit depth                      : 8 bits
Scan type                      : Progressive
Bits/(Pixel*Frame)             : 0.054
Stream size                    : 794 MiB (90%)
Title                          : GOPISAHI
Writing library                : x264 core 157 r2935 545de2f

Audio
Format                         : AAC LC
Duration                       : 2 h 3 min
Bit rate                       : 92.8 kb/s
Channel(s)                     : 2 channels
Channel layout                 : L R
Sampling rate                  : 48.0 kHz
Frame rate                     : 46.875 FPS (1024 SPF)
Compression mode               : Lossy
Delay relative to video        : -21 ms
Stream size                    : 82.0 MiB (9%)
Title                          : GOPISAHI
Language                       : Panjabi

Text
Language                       : Englis






No comments:

Post a Comment