Search This Blog

Battalion 609 2019 x264 720p HD Hindi GOPISAHI

The story of Battalion 609 revolves around a cricket match between the Indian Army and the Pakistan army gone wrong and narrates the tale of the brave soldiers of Battalion 609 putting up a fight with the mighty Taliban.

Writer:

Bunty Rathore (dialogue)

The story of Battalion 609 revolves around a cricket match between the Indian Army and the Pakistan army gone wrong and narrates the tale of the brave soldiers of Battalion 609 putting up a fight with the mighty Taliban.

Writer:

Bunty Rathore (dialogue)

4.2/10
70

Production
company
N. J. Lalwani Films[2]
Distributed byBig Curtains Media Private Limited
Release date
  • 11 January 2019[3]
Running time
2 hour 23 minutes
CountryIndia
LanguageHindi
Box office40 Lakh[4]



Battalion 609 2019 x264 720p HD Hindi GOPISAHI

Format                         : Matroska
Format version                 : Version 4
File size                      : 962 MiB
Duration                       : 2 h 14 min
Overall bit rate               : 997 kb/s
Movie name                     : Battalion 609 - 2019 GOPISAHI

Video
Format                         : AVC
Format/Info                    : Advanced Video Codec
Format profile                 : [email protected]
Format settings                : CABAC / 12 Ref Frames
Format settings, CABAC         : Yes
Format settings, Reference fra : 12 frames
Codec ID                       : V_MPEG4/ISO/AVC
Duration                       : 2 h 14 min
Bit rate                       : 899 kb/s
Width                          : 1 280 pixels
Height                         : 544 pixels
Display aspect ratio           : 2.35:1
Frame rate mode                : Constant
Frame rate                     : 25.000 FPS
Color space                    : YUV
Chroma subsampling             : 4:2:0
Bit depth                      : 8 bits
Scan type                      : Progressive
Bits/(Pixel*Frame)             : 0.052
Stream size                    : 867 MiB (90%)
Title                          : GOPISAHI
Writing library                : x264 core 157 r2935 545de2f

Audio
Format                         : AAC LC
Duration                       : 2 h 14 min
Bit rate                       : 96.0 kb/s
Channel(s)                     : 2 channels
Channel layout                 : L R
Sampling rate                  : 48.0 kHz
Frame rate                     : 46.875 FPS (1024 SPF)
Compression mode               : Lossy
Delay relative to video        : -21 ms
Stream size                    : 92.8 MiB (10%)
Title                          : GOPISAHI
Language                       : Hindi







No comments:

Post a Comment