Search This Blog

The Ten Commandments x264 720p Esub BluRay Dual Audio English Hindi GOPISAHI

The Ten Commandments (1956)

The Egyptian Prince, Moses, learns of his true heritage as a Hebrew and his divine mission as the deliverer of his people.

Director:

Cecil B. DeMille (as Cecil B. de Mille)

Writers:

Dorothy Clarke Wilson (this work contains material from the book "Prince of Egypt"), J.H. Ingraham (this work contains material from the book "Pillar of Fire") (as Rev. J. H. Ingraham) | 5 more credits »

7.9/10

 
57,907


The Ten Commandments x264 720p Esub BluRay Dual Audio English Hindi GOPISAHI
Format                         : Matroska
Format version                 : Version 4
File size                      : 1.54 GiB
Duration                       : 3 h 46 min
Overall bit rate               : 978 kb/s
Movie name                     : The Ten Commandments 1956 GOPISAHI

Video
Format                         : AVC
Format/Info                    : Advanced Video Codec
Format profile                 : [email protected]
Format settings                : CABAC / 9 Ref Frames
Format settings, CABAC         : Yes
Format settings, Reference fra : 9 frames
Codec ID                       : V_MPEG4/ISO/AVC
Duration                       : 3 h 40 min
Bit rate                       : 699 kb/s
Width                          : 1 280 pixels
Height                         : 720 pixels
Display aspect ratio           : 16:9
Frame rate mode                : Constant
Frame rate                     : 23.976 (24000/1001) FPS
Color space                    : YUV
Chroma subsampling             : 4:2:0
Bit depth                      : 8 bits
Scan type                      : Progressive
Bits/(Pixel*Frame)             : 0.032
Stream size                    : 1.07 GiB (70%)
Title                          : GOPISAHI
Writing library                : x264 core 157 r2935 545de2f

Audio #1
Format                         : AAC LC
Duration                       : 3 h 40 min
Bit rate                       : 96.0 kb/s
Channel(s)                     : 2 channels
Channel layout                 : L R
Sampling rate                  : 48.0 kHz
Frame rate                     : 46.875 FPS (1024 SPF)
Compression mode               : Lossy
Delay relative to video        : -21 ms
Stream size                    : 152 MiB (10%)
Title                          : GOPISAHI
Language                       : Hindi

Audio #2
ID                             : 3
Format                         : AAC LC
Duration                       : 3 h 40 min
Bit rate                       : 192 kb/s
Channel(s)                     : 6 channels
Channel layout                 : C L R Ls Rs LFE
Sampling rate                  : 48.0 kHz
Frame rate                     : 46.875 FPS (1024 SPF)
Compression mode               : Lossy
Delay relative to video        : -21 ms
Stream size                    : 303 MiB (19%)
Title                          : GOPISAHI
Language                       : English

Text #1
Format                         : PGS
Codec ID                       : S_HDMV/PGS
Codec ID/Info                  : Picture based subtitle format used on BDs/HD-DVDs
Language                       : Hindi

Text #2
Format                         : PGS
Codec ID                       : S_HDMV/PGS
Language                       : English





No comments:

Post a Comment